Classic rock heardle

zg

Please find below the Heardle #90 May 26 2022 Answer and Solution. Heardle is the latest successful clone of the famous Wordle game. The twist in this new and exciting game is that you are given parts of a song and you have to correctly guess the song title along with the artist. ... Classic rock group Led 7 little words. Fleeting 7 little. The new music game Heardle makes you guess the song by only hearing snippets at a time. The world is obsessed with the word guessing game Wordle, but if vocabulary isn't your bag and music is more of your speed, may we suggest a brand new game called "Heardle." You play by trying to guess a particular song with only snippets of the intro. eqwpme
cm

Heardle Solution for Friday, July 15 The answer for today's Heardle is La Grange, a song by ZZ Top from their 1973 record Tres Hombres. This song was first released in 1973 as a track on ZZ Top's successful album Tres Hombres. It opens with a nice blues start before transitioning into a power chord riff like classic 70s rock.

The track made the American band the first rock act to have a song reach a billion streams on Spotify. It was nominated for two awards (Record of the Year and Best Pop Duo/Group Performance) at the 59th Grammy awards, winning the second. What is today's Heardle answer: July 4? If you have given up on today's game, then we can save you the misery.

Answer in as few tries as possible and share your score! Play. Heardle 60s. Turn up the volume and tap to start the track! 0:00. 0:17. Skip (+1s.

bm

dk

Roupas fitness, acessórios importados e produtos para seu bem estar. Acesse o link : https://bit.ly/3OrljI9 Da natureza para sua mesa! Mel puro, própoli. Aug 09, 2022 · The track is listed within the Pop Punk/Alternative Rock genres The tune is the third single from the American group's third album It is about the lead vocalist's struggle with anxiety ahead of his panic disorder diagnosis Heardle August 10: Do you have the time to listen to me whine.

Listen on Spotify: ACDC - Led Zepplin - Guns N Roses - Iconos del Rock - Legends of Rock - Rock 2000s - Hard Rock - Head Band Rock - Headbands - Rock Gods - Rock Star.

  1. Select low cost funds
  2. Consider carefully the added cost of advice
  3. Do not overrate past fund performance
  4. Use past performance only to determine consistency and risk
  5. Beware of star managers
  6. Beware of asset size
  7. Don't own too many funds
  8. Buy your fund portfolio and hold it!

bs

Please find below the Heardle #90 May 26 2022 Answer and Solution. Heardle is the latest successful clone of the famous Wordle game. The twist in this new and exciting game is that you are given parts of a song and you have to correctly guess the song title along with the artist. ... Classic rock group Led 7 little words. Fleeting 7 little.

ar

A classic!! #Heardle #29 ⬛️ ⬜️⬜️⬜️⬜️ https://heardle.app. Jump to. Sections of this page. Accessibility Help. Press alt + / to open this menu. Facebook. Email or phone: Password: Forgot account? Sign Up. See more of Wilson's World.

cs

ve

Alan Cross. is an internationally known broadcaster, interviewer, writer, consultant, blogger and speaker. In his 40+ years in the music business, Alan has interviewed the biggest names in rock. 1995 freightliner classic. i locked my keys in my trunk toyota corolla. ... Heardle 80s isn't Snelling's first venture into the world of Josh Wardle-esque games. ... For The Love Of Money.June 26th 2022 = Deee-Lite - Groove Is In The Heart.June 25th 2022 = Michael Jackson - Rock With You.June 24th 2022 = Ginuwine - Pony.. "/>.

The new music game Heardle makes you guess the song by only hearing snippets at a time. The world is obsessed with the word guessing game Wordle, but if vocabulary isn't your bag and music is more of your speed, may we suggest a brand new game called "Heardle." You play by trying to guess a particular song with only snippets of the intro. By JayCee. Classic Rock 105.1. 2022-03-07. Read full article on original website.

If you have given up on today’s game, then we can save you the misery. But those still trying to crack the tune, look away now. The Heardle for August 13 is: "Sunshine Of Your Love" by Cream. Play the game via the Heardle website.

fk

dc

kl

Yes, still bitter. Lol! I was thinking the other day that maybe they could do Heardle by genre. Pop hits, classic rock, R&B, country, etc. I’m sure that would be a lot of work but it would probably be much more playable. For real, love the idea but I don't listen to hardly any new music. I need 60s/70s heardle lol.

Heardle Song Today Answer Released for April 27, 2022 Wednesday, check Song of the day: Heardle musical intros game Answer and Hints. ... Song album is I Love Rock 'n Roll: Hint 3: Song Sing by Joan Jett and the Blackhearts: Hint 4: Genre - Hard Rock: ... Nerdle Answer (April 27, 2022): Check Classic, Mini, Instant & Speed Nerdle Solution.

Hard rock or heavy rock is a loosely defined subgenre of rock music typified by a heavy use of aggressive vocals, distorted electric guitars, bass guitar, and drums, sometimes accompanied with keyboards.It began in the mid-1960s with the garage, psychedelic and blues rock movements. Some of the earliest hard rock music was produced by the Kinks, the Who, the. Jul 11, 2022 · 11. Rock and Water. Seed: 3969420520284585470. Rock and Water is a great start because it starts you in an area that you can roam for weeks or months, but it’s not too far from the mainland when you’re ready to move on. Key Locations. Village #1: -280 328; Village #2: 216 664; Ocean Monument: 136 168; Shipwreck #1: 200 296; Shipwreck #2 ....

Classic - My Photos by Carl Heard (heardle). Stream music on Myspace, a place where people come to connect, discover, and share. Carl Heard. Photos; Connections. People; Songs; Albums; Videos ... Photos migrated from Classic Myspace on 2/24/2014 7:09:44 PM Comment Share. Classic - My Photos Mix Photo. Classic - My Photos Mix Photo.

ot

gy

jf

The original Classic Established Hard Rock, Arizona T-Shirt features a traditional design that is great to wear while hanging out with friends at the barbecue or football game. Be proud and celebrate your Hard Rock, Arizona hometown pride! 4.5 oz./yd² (US) 7.5 oz./L yd (CA), 100% ring spun cotton Antique colors & Sport Grey: 90/10 cotton. (Classic Rock/Art Rock) Roxy Music - Tower Theater, Upper Darby, PA - 1979-03-30, FLAC (tracks), lossless » Classic Rock & Hard Rock (lossless) :: RuTracker.org.

Listen to free classic rock radio with unlimited skips. Step beyond the cookie-cutter classic rock playlists and enjoy our unique selection of songs.

#Heardle #56 ️ ️ ️ ️ It it as soon as the main beat kicked in. ... Didn't know this one. I typed in a bunch of classic rock bands only to find out they weren't in the list and instead it kept throwing 2010s R&B back at me. Judging the website developer hard now. Pluto. Member. Oct 25, 2017 4,330. May 1, 2022 #328.

ss

October 2, 2017 May 29, 2018 Larry Lootsteen 1 Comment Daniel Sarkissian, Documentary, film, What Is Classic Rock When it comes to classic rock, you could ask a cross-section of fans and get a.

gu

vw

REM GENRE Rock REM DATE 2022 REM DISCID A60C060C REM COMMENT "ExactAudioCopy v1.6" PERFORMER "Zorall" TITLE "Fordított világ" REM COMPOSER "" FILE "01 - Hol volt, hol nem volt.wav" WAVE TRACK 01 AUDIO TITLE "Hol volt, hol nem volt" PERFORMER "Zorall" REM COMPOSER "" INDEX 01 00:00:00 TRACK 02 AUDIO TITLE "Időkoldus" PERFORMER "Zorall" REM.

Heardle 80s. The daily music intro guessing game that's 100% '80s! heardle80s.com. Never heard of this but almost certainly not a cracker of a song. 90s Heardle #35. ️ ️ ️ ️ ️. https://90s-heardle.glitch.me/ #90sHeardle. Kicking myself for not getting this I thought it was for some reason. True to Wordle, Heardle is also a daily guessing game where players are presented with the challenge to guess the song of the day that is revealed in rationed portions over 6 chances. The Heardle creators call it a “respectful homage to Wordle, with a musical twist.”.The tracks used in the challenge are popular songs by celebrated artists.

pt

lr

ji

REM GENRE Rock REM DATE 2022 REM DISCID A60C060C REM COMMENT "ExactAudioCopy v1.6" PERFORMER "Zorall" TITLE "Fordított világ" REM COMPOSER "" FILE "01 - Hol volt, hol nem volt.wav" WAVE TRACK 01 AUDIO TITLE "Hol volt, hol nem volt" PERFORMER "Zorall" REM COMPOSER "" INDEX 01 00:00:00 TRACK 02 AUDIO TITLE "Időkoldus" PERFORMER "Zorall" REM. Rock müzik, 1950'lerde ABD'de "rock and roll" olarak doğan, 1960'larda ve sonrasında farklı tarzlara ayrılarak özellikle İngiltere ve ABD'de gelişen bir müzik türüdür.Kökleri 1940'ların ve 1950'lerin rock and roll'una dayanır. Rock and roll ise blues, rhythm and blues ve country müzikten yoğun biçimde esinlenmiştir. Rock müzik; electric blues ve folk, caz, klasik müzik.

May 09, 2022 · There's also a Paramore Heardle and a Muse Heardle! And, if you're unsure about the rules of Wordle and Heardle, here's what you need to know. Where the original game requires the player to guess a hidden word in no more than six tries, the Heardle user must name the song that's being played on the game within six 1.5 second segmented snippets..

bv

xq

cr

We now have our very own heavy metal edition of Heardle, that features music from bands such as Ozzy Osbourne, Tool, Metallica, Type O Negative and more. Sounds like a pretty sure-fire way to separate your true metalhead friends from the poseurs. But more importantly, the thought of a corpse paint wearing black metal fan, frustratingly. Classic Rock Marble & Granite is a locally owned and operated business in Beverly, Massachusetts that has been providing excellent services throughout New England since 2012. We are one of the premier fabricators of natural stone and quartz surfaces. With an extensive inventory of natural and man-made products and our stunning showroom, we are a one stop.

As of now, the music sensation Taylor's classic bodysuit, which she wore in 2021 at the Rock & Roll Hall Of Fame Induction Ceremony is headlining Rock Hall in Cleveland . The outfit worn by her is included in the Right Here, Right Now exhibition; it is to celebrate artists and their footprints in the music industry.

ch

ms

pj

Now, there's a new Wordle-inspired game at your fingertips for music lovers — Heardle! Heardle has been trending on Twitter all week. According to the game's website, each song of the day is "randomly plucked from a list of the most-streamed songs in the past decade." To play, you can visit heardle.app. The website calls it "a respectful.

REM GENRE Rock REM DATE 2022 REM DISCID A60C060C REM COMMENT "ExactAudioCopy v1.6" PERFORMER "Zorall" TITLE "Fordított világ" REM COMPOSER "" FILE "01 - Hol volt, hol nem volt.wav" WAVE TRACK 01 AUDIO TITLE "Hol volt, hol nem volt" PERFORMER "Zorall" REM COMPOSER "" INDEX 01 00:00:00 TRACK 02 AUDIO TITLE "Időkoldus" PERFORMER "Zorall" REM.

  1. Know what you know
  2. It's futile to predict the economy and interest rates
  3. You have plenty of time to identify and recognize exceptional companies
  4. Avoid long shots
  5. Good management is very important - buy good businesses
  6. Be flexible and humble, and learn from mistakes
  7. Before you make a purchase, you should be able to explain why you are buying
  8. There's always something to worry about - do you know what it is?

cs

ua

yq

2022. 8. 2. · The best gaming-themed Heardle games – Sonic, Pokémon, and more. John Hansen. April 20, 2022. Can you recognize where the song comes from? READ MORE. Yes, still bitter. Lol! I was thinking the other day that maybe they could do Heardle by genre. Pop hits, classic rock, R&B, country, etc. I'm sure that would be a lot of work but it would probably be much more playable. For real, love the idea but I don't listen to hardly any new music. I need 60s/70s heardle lol.

Heardle, the audio-based Wordle spin-off, has been given a heavy metal makeover for this new version. Facebook. Email or phone: Password: Forgot account? Sign Up. See more of Daily Rock News. on Facebook. ... Daily Rock News. Today at 12:30 AM. Happy Birthday Yngwie Malmsteen. 30th June, 1963.

ke

lq

hd

2022. 8. 2. · The best gaming-themed Heardle games – Sonic, Pokémon, and more. John Hansen. April 20, 2022. Can you recognize where the song comes from? READ MORE. Forbes - Hello, friends. I trust that you're having a wonderful Sunday. Let's keep you in high spirits by finding the title and artist of today's Heardle song. I've got some clues and the answer coming right up, in case they're of use to you. First, if you haven't played before, here's how Heardle works: You.

9. ‘The Boys Are Back in Town’ by Thin Lizzy. This pinnacle of party songs is a few parts leather (either trousers or boots), a smattering.

  • Make all of your mistakes early in life. The more tough lessons early on, the fewer errors you make later.
  • Always make your living doing something you enjoy.
  • Be intellectually competitive. The key to research is to assimilate as much data as possible in order to be to the first to sense a major change.
  • Make good decisions even with incomplete information. You will never have all the information you need. What matters is what you do with the information you have.
  • Always trust your intuition, which resembles a hidden supercomputer in the mind. It can help you do the right thing at the right time if you give it a chance.
  • Don't make small investments. If you're going to put money at risk, make sure the reward is high enough to justify the time and effort you put into the investment decision.

tb

The Top 10 Investors Of All Time

zh

yw

.

Heardle Solution for Friday, July 15 The answer for today's Heardle is La Grange, a song by ZZ Top from their 1973 record Tres Hombres. This song was first released in 1973 as a track on ZZ Top's successful album Tres Hombres. It opens with a nice blues start before transitioning into a power chord riff like classic 70s rock.

xd

cz
Editorial Disclaimer: Opinions expressed here are author’s alone, not those of any bank, credit card issuer, airlines or hotel chain, or other advertiser and have not been reviewed, approved or otherwise endorsed by any of these entities.
Comment Policy: We invite readers to respond with questions or comments. Comments may be held for moderation and are subject to approval. Comments are solely the opinions of their authors'. The responses in the comments below are not provided or commissioned by any advertiser. Responses have not been reviewed, approved or otherwise endorsed by any company. It is not anyone's responsibility to ensure all posts and/or questions are answered.
zj
gj
ob

in

dk

(Classic Rock/Art Rock) Roxy Music - Tower Theater, Upper Darby, PA - 1979-03-30, FLAC (tracks), lossless » Classic Rock & Hard Rock (lossless) :: RuTracker.org.

be
11 years ago
dv

According to the game's website, each song of the day is "randomly plucked from a list of the most-streamed songs in the past decade." To play, you can visit heardle.app. The website calls it "a respectful homage to Wordle, with a musical twist." Here's how it works: Your job is to guess the song of the day by listening to its intro.

yp
11 years ago
sq

REM GENRE Rock REM DATE 2022 REM DISCID A60C060C REM COMMENT "ExactAudioCopy v1.6" PERFORMER "Zorall" TITLE "Fordított világ" REM COMPOSER "" FILE "01 - Hol volt, hol nem volt.wav" WAVE TRACK 01 AUDIO TITLE "Hol volt, hol nem volt" PERFORMER "Zorall" REM COMPOSER "" INDEX 01 00:00:00 TRACK 02 AUDIO TITLE "Időkoldus" PERFORMER "Zorall" REM. You can find All Heardle Answers : #165 August 7 — Riptide - Vance Joy. #164 August 7 — Somebody That I Used To Know - Gotye. #163 August 6 — Sympathy For The Devil - The Rolling Stones. #162 August 5 — Escape (The Pina Colada Song) - Rupert Holmes. #161 August 4 — Blue (Da Ba Dee) - Eiffel 65. #160 August 3 — Do I Wanna.

Heardle 90s. Listen to the intro, then find the correct 90s song in the list. Skipped or incorrect attempts unlock more of the intro. Answer in as few tries as possible and share your score!.

xl
11 years ago
st

Experience All of Hard Rock. Music is life. And we're in it for the song, art, tastes and the authentically Hard Rock touch. Live inside the moment at a Hard Rock Hotel, Resort or All-Inclusive experience, where classic memorabilia sets the stage for a one-of-a-kind experience.Feel your heart pound to the beat of our live music at Hard Rock Live entertainment venues.

rr
11 years ago
fj

Come and test your Rock music culture on free music quizzes without registration. Hundreds of playlists to challenge yourself or discover new sounds. Classic (Beta) Play with friends.

Contribute to Yonatasoft/Heardle development by creating an account on GitHub. Contribute to Yonatasoft/Heardle development by creating an account on GitHub. Skip to content. Sign up Product Features Mobile Actions Codespaces Copilot Packages Security Code review Issues Discussions Integrations GitHub Sponsors.

Heardle does all this while challenging your aural proximity to the currency of pop, hip-hop, rock and electro. Think Bruno Mars, Childish Gambino, Coldplay and Daft Punk. Think Bruno Mars.

re
11 years ago
ya

The game is called NCity Heardle. Stray Kids. Strays Kids has had a number of hits in the punk rock and noise genres. Given the limited number of cues, properly guessing each song can be tough. The music may be picked from any point in the song, even a split second after the beginning. TWICE. A bubblegum pop girl group, TWICE has a Heardle as well.

iy
11 years ago
iu

80s 90s Classic Hard Rock Collection 🎁 GNR, Metallica, ACDC, Nirvana, CCR, U2, Scorpions, Bon Jovi80s 90s Classic Hard Rock Collection 🎁 GNR, Metallica, AC.

ox
11 years ago
ni

“A classic KH Heardle #42 🔊💚🤍🤍🤍🤍🤍 https://t.co/jsYNQ65HNY”.

le
10 years ago
bf

REM GENRE Rock REM DATE 2022 REM DISCID A60C060C REM COMMENT "ExactAudioCopy v1.6" PERFORMER "Zorall" TITLE "Fordított világ" REM COMPOSER "" FILE "01 - Hol volt, hol nem volt.wav" WAVE TRACK 01 AUDIO TITLE "Hol volt, hol nem volt" PERFORMER "Zorall" REM COMPOSER "" INDEX 01 00:00:00 TRACK 02 AUDIO TITLE "Időkoldus" PERFORMER "Zorall" REM.

ok

pu
10 years ago
ad

ey

wq
10 years ago
dl

fk

Jul 11, 2022 · Another day, another song of the day to guess for Heardle 137. Here are our July 12, 2022 hints and answer solution guide. Following Wordle’s success, many clone games were released in an effort to reach a similar audience. We don’t know how many people use Wordle on a daily basis, but we do have [].

April 9, 2018. 0. Westwood One has launched a new 80s/90s based syndicated Classic Rock format. " Classic Rock X " launched last month on Forever Media's " Rocky 96.5 " WRQY Wheeling WV. Forever contributed to the development of the format and intends to launch it on more of their stations. The new format will focus on harder leaning.

dk

va
10 years ago
hc
Reply to  xz

Jul 11, 2022 · 11. Rock and Water. Seed: 3969420520284585470. Rock and Water is a great start because it starts you in an area that you can roam for weeks or months, but it’s not too far from the mainland when you’re ready to move on. Key Locations. Village #1: -280 328; Village #2: 216 664; Ocean Monument: 136 168; Shipwreck #1: 200 296; Shipwreck #2 ....

pg
10 years ago
wv

cm

wz

sn
10 years ago
yy

Rock müzik, 1950'lerde ABD'de "rock and roll" olarak doğan, 1960'larda ve sonrasında farklı tarzlara ayrılarak özellikle İngiltere ve ABD'de gelişen bir müzik türüdür.Kökleri 1940'ların ve 1950'lerin rock and roll'una dayanır. Rock and roll ise blues, rhythm and blues ve country müzikten yoğun biçimde esinlenmiştir. Rock müzik; electric blues ve folk, caz, klasik müzik.

This song is in the samba rock genre. It was released in 1968. It appeared on an album called Beggars Banquet. Guns N' Roses had a hit with a cover version. Heardle Answer For August 6 Spoiler.

Jun 28, 2022 · Developer Nightdive Studios has announced that its critically panned remaster of Westwood Studios' classic point-and-click adventure Blade Runner will now include the well-recieved ScummVM version ....

Yes, still bitter. Lol! I was thinking the other day that maybe they could do Heardle by genre. Pop hits, classic rock, R&B, country, etc. I’m sure that would be a lot of work but it would probably be much more playable. For real, love the idea but I don't listen to hardly any new music. I need 60s/70s heardle lol.

ds

pz
9 years ago
tm

The Heardle answer for today is Blue (Da Ba Dee) by Eiffel 65 which appeared on their 'Europop' album. You can give it a listen below: Now you have the answer, do not spoil it for others! Remember.

jg
8 years ago
gp

Jul 11, 2022 · 11. Rock and Water. Seed: 3969420520284585470. Rock and Water is a great start because it starts you in an area that you can roam for weeks or months, but it’s not too far from the mainland when you’re ready to move on. Key Locations. Village #1: -280 328; Village #2: 216 664; Ocean Monument: 136 168; Shipwreck #1: 200 296; Shipwreck #2 ....

es
7 years ago
ym

Experience All of Hard Rock. Music is life. And we're in it for the song, art, tastes and the authentically Hard Rock touch. Live inside the moment at a Hard Rock Hotel, Resort or All-Inclusive experience, where classic memorabilia sets the stage for a one-of-a-kind experience.Feel your heart pound to the beat of our live music at Hard Rock Live entertainment venues.

ge
1 year ago
db

The correct answer to today's Heardle challenge is La Grange by ZZ Top. More details by La Grange by ZZ Top La Grange was released in 1973 as part of ZZ Top's hit album, Tres Hombres. The song.

ve
zo
np
>